<?xml version="1.0" standalone="no"?>
<!DOCTYPE svg PUBLIC "-//W3C//DTD SVG 1.1//EN" "http://www.w3.org/Graphics/SVG/1.1/DTD/svg11.dtd" >
<svg xmlns="http://www.w3.org/2000/svg">
<metadata>Generated by IcoMoon</metadata>
<defs>
<font id="icomoon" horiz-adv-x="1024">
<font-face units-per-em="1024" ascent="960" descent="-64" />
<missing-glyph horiz-adv-x="1024" />
<glyph unicode="&#x20;" d="" horiz-adv-x="512" />
<glyph unicode="&#xe600;" d="M447.291 448l-434.424 431.321c-18.618 18.618-18.618 46.545 0 65.164s46.545 18.618 65.164 0l465.455-465.455c18.618-18.618 18.618-46.545 0-65.164l-465.455-465.455c-9.309-9.309-21.721-12.412-34.133-12.412s-24.824 3.103-34.133 12.412c-18.618 18.618-18.618 46.545 0 65.164l437.527 434.424z" horiz-adv-x="559" />
<glyph unicode="&#xe601;" d="M36.237-4.384c-10.521 5.26-15.196 8.767-15.196 13.443 0 3.507 3.507 7.014 8.767 7.014 8.767 0 18.703-7.014 18.703-8.767 1.753-1.753 3.507 0 5.26 1.753l7.014 10.521c0 1.753 0 3.507 0 5.26-3.507 3.507-15.196 10.521-29.224 10.521-20.457 0-30.977-13.443-30.977-27.47 0-15.196 15.196-25.717 25.717-29.224 8.767-3.507 13.443-8.767 13.443-13.443 0-5.26-3.507-8.767-8.767-8.767-8.183 0-18.703 7.014-18.703 7.014-1.753 0-3.507 1.753-5.26 0l-7.014-11.689c0-1.753 0-1.753 1.753-3.507 3.507-3.507 11.689-10.521 30.977-10.521 20.457 0 32.731 13.443 32.731 27.47-1.753 18.703-18.703 27.47-29.224 30.393zM190.539 14.904c7.014 0 13.443-1.753 18.703-7.014 1.753-1.753 1.753-1.753 3.507 0l10.521 10.521c1.753 1.753 1.753 3.507 0 3.507-8.767 8.767-18.703 11.689-32.731 11.689-27.47 0-47.927-22.21-47.927-47.927 0-27.47 22.21-47.927 47.927-47.927 11.689 0 23.963 3.507 32.731 13.443 1.753 1.753 1.753 3.507 0 3.507l-10.521 11.689c0 1.753-1.753 1.753-3.507 0-5.26-3.507-11.689-7.014-18.703-7.014-15.196 0-27.47 11.689-27.47 27.47 1.753 15.781 12.274 28.055 27.47 28.055zM347.763 35.361c-27.47 0-47.927-22.21-47.927-47.927 0-27.47 22.21-47.927 47.927-47.927 27.47 0 47.927 22.21 47.927 47.927s-22.21 47.927-47.927 47.927zM347.763-40.037c-15.196 0-27.47 11.689-27.47 27.47s11.689 27.47 27.47 27.47 27.47-11.689 27.47-27.47c-1.753-15.781-13.443-27.47-27.47-27.47zM531.288 33.607h-60.201c-1.753 0-1.753-1.753-1.753-1.753v-15.196c0-1.753 1.753-1.753 1.753-1.753h18.703v-71.89c0-1.753 1.753-3.507 3.507-3.507h15.781c1.753 0 3.507 1.753 3.507 3.507v71.89h18.703c1.753 0 3.507 1.753 3.507 1.753v15.196c0 0-1.753 1.753-3.507 1.753zM669.808 33.607h-59.616c-1.753 0-1.753-1.753-1.753-1.753v-15.196c0-1.753 1.753-1.753 1.753-1.753h18.703v-71.89c0-1.753 1.753-3.507 3.507-3.507h15.196c1.753 0 3.507 1.753 3.507 3.507v71.89h18.703c1.753 0 1.753 1.753 1.753 1.753v15.196c0 0 0 1.753-1.753 1.753zM878.466-19.58h-30.977c-1.753 0-1.753-1.753-1.753-1.753v-11.689c0-1.753 1.753-1.753 1.753-1.753h30.977c1.753 0 3.507 1.753 3.507 1.753v11.689c0 0-1.753 1.753-3.507 1.753zM1111.087-12.566c7.014 3.507 15.196 10.521 15.196 20.457 0 13.443-13.443 25.717-29.224 25.717h-30.977c-1.753 0-3.507-1.753-3.507-1.753v-88.84c0-1.753 1.753-3.507 3.507-3.507h34.484c15.196 0 29.224 10.521 29.224 25.717-1.169 11.689-11.689 18.703-18.703 22.21zM1084.201 14.904h11.689c5.26 0 10.521-3.507 10.521-8.767s-5.26-10.521-10.521-10.521h-10.521v18.703l-1.169 0.584zM1097.644-41.79h-11.689v18.703h10.521c5.26 0 10.521-3.507 10.521-10.521-0.584-2.922-4.091-8.183-9.352-8.183zM1267.142-40.037h-32.731v71.89c0 1.753-1.753 1.753-3.507 1.753h-15.196c-1.753 0-3.507-1.753-3.507-1.753v-88.84c0-1.753 1.753-3.507 3.507-3.507h51.434c1.753 0 3.507 1.753 3.507 3.507v15.196c-1.753 0-1.753 1.753-3.507 1.753zM1420.858 33.607h-16.95c-1.753 0-1.753-1.753-1.753-1.753v-54.941c0-10.521-7.014-16.95-16.95-16.95-10.521 0-16.95 7.014-16.95 16.95v54.941c0 1.753-1.753 1.753-1.753 1.753h-16.95c-1.753 0-3.507-1.753-3.507-1.753v-56.694c0-20.457 16.95-37.406 37.406-37.406s39.16 16.95 39.16 37.406v56.694c1.753 0 0 1.753-1.753 1.753zM1571.653 33.607h-56.694c-1.753 0-3.507-1.753-3.507-1.753v-88.84c0-1.753 1.753-3.507 3.507-3.507h56.694c1.753 0 3.507 1.753 3.507 3.507v15.196c0 1.753-1.753 3.507-3.507 3.507h-37.406v18.703h30.977c1.753 0 3.507 1.753 3.507 1.753v15.196c0 1.753-1.753 1.753-3.507 1.753h-30.977v16.95h37.406c1.753 0 3.507 1.753 3.507 1.753v15.781c0-1.753-1.753 0-3.507 0zM1763.361 33.607h-15.196c-1.753 0-1.753-1.753-1.753-1.753l-11.689-46.174-20.457 47.927-1.753 1.753h-1.753c-1.753 0-1.753 0-1.753-1.753l-20.457-47.927-11.689 46.174c0 1.753-1.753 1.753-1.753 1.753h-15.196c-1.753 0-3.507-1.753-1.753-3.507l25.717-90.594c0-1.753 1.753-1.753 1.753-1.753h1.753c1.753 0 1.753 0 1.753 1.753l23.963 54.941 23.963-54.941 1.753-1.753h1.753c1.753 0 1.753 0 1.753 1.753l25.717 90.594c-1.169 1.753-2.922 3.507-4.676 3.507zM1877.918 35.361v0c-1.753 0-3.507 0-3.507-1.753l-42.667-90.594c0-1.753 0-3.507 1.753-3.507h15.196c3.507 0 3.507 1.753 5.26 3.507l5.26 10.521h35.653l5.26-10.521c1.753-3.507 1.753-3.507 5.26-3.507h15.196c1.753 0 3.507 1.753 1.753 3.507l-42.667 90.594c0 1.753-1.753 1.753-1.753 1.753zM1867.982-28.347l10.521 22.21 10.521-22.21h-21.041zM2049.169 33.607h-59.616c-1.753 0-1.753-1.753-1.753-1.753v-15.196c0-1.753 1.753-1.753 1.753-1.753h18.703v-71.89c0-1.753 1.753-3.507 3.507-3.507h15.196c1.753 0 3.507 1.753 3.507 3.507v71.89h18.703c1.753 0 1.753 1.753 1.753 1.753v15.196c0 0 0 1.753-1.753 1.753zM2191.196 33.607h-56.694c-1.753 0-3.507-1.753-3.507-1.753v-88.84c0-1.753 1.753-3.507 3.507-3.507h56.694c1.753 0 3.507 1.753 3.507 3.507v15.196c0 1.753-1.753 3.507-3.507 3.507h-37.406v18.703h30.977c1.753 0 3.507 1.753 3.507 1.753v15.196c0 1.753-1.753 1.753-3.507 1.753h-30.977v16.95h37.406c1.753 0 3.507 1.753 3.507 1.753v15.781c-1.753-1.753-1.753 0-3.507 0zM2350.174 4.384c0 15.196-13.443 29.224-29.224 29.224h-40.913c-1.753 0-3.507-1.753-3.507-1.753v-88.84c0-1.753 1.753-3.507 3.507-3.507h15.196c1.753 0 3.507 1.753 3.507 3.507v34.484h8.767l16.95-35.653 1.753-1.753h16.95c1.753 0 3.507 1.753 1.753 3.507l-18.703 34.484c17.534 4.091 23.963 14.612 23.963 26.301zM2319.781-5.553h-20.457v20.457h20.457c5.26 0 10.521-5.26 10.521-10.521-0.584-5.26-5.26-9.936-10.521-9.936zM2562.922-19.58h-30.977c-1.753 0-1.753-1.753-1.753-1.753v-11.689c0-1.753 1.753-1.753 1.753-1.753h30.977c1.753 0 3.507 1.753 3.507 1.753v11.689c-2.338 0-3.507 1.753-3.507 1.753zM2766.32 33.607h-15.196c-1.753 0-3.507-1.753-3.507-1.753v-88.84c0-1.753 1.753-3.507 3.507-3.507h15.196c1.753 0 3.507 1.753 3.507 3.507v88.84c-1.753 0-1.753 1.753-3.507 1.753zM2942.831 35.361h-1.753c0 0-1.753 0-1.753-1.753l-30.977-58.447-30.977 58.447-1.753 1.753h-1.753c-1.753 0-1.753-1.753-1.753-1.753l-15.196-90.594c0-1.753 1.753-3.507 1.753-3.507h15.196c1.753 0 1.753 1.753 1.753 1.753l5.26 40.913 22.21-44.42 1.753-1.753h1.753c0 0 1.753 0 1.753 1.753l22.21 44.42 7.014-40.913c0-1.753 1.753-1.753 3.507-1.753h15.196c1.753 0 3.507 1.753 3.507 3.507l-15.196 90.594c0 0 0 1.753-1.753 1.753zM3079.598 33.607h-32.731c-1.753 0-3.507-1.753-3.507-1.753v-88.84c0-1.753 1.753-3.507 3.507-3.507h15.196c1.753 0 1.753 1.753 1.753 3.507v32.146h13.443c16.95 0 30.977 13.443 30.977 30.977 2.338 13.443-11.689 27.47-28.639 27.47zM3079.598-5.553h-11.689v20.457h11.689c5.26 0 10.521-5.26 10.521-10.521-0.584-7.014-5.26-9.936-10.521-9.936zM3250.849 33.607h-56.694c-1.753 0-3.507-1.753-3.507-1.753v-88.84c0-1.753 1.753-3.507 3.507-3.507h56.694c1.753 0 3.507 1.753 3.507 3.507v15.196c0 1.753-1.753 3.507-3.507 3.507h-37.406v18.703h30.977c1.753 0 3.507 1.753 3.507 1.753v15.196c0 1.753-1.753 1.753-3.507 1.753h-30.977v16.95h37.406c1.753 0 3.507 1.753 3.507 1.753v15.781c-1.753-1.753-3.507 0-3.507 0zM3382.356-12.566l27.47 42.667c1.753 1.753 0 3.507-1.753 3.507h-20.457c-1.753 0-1.753 0-1.753-1.753l-15.196-25.717-15.196 25.717-1.753 1.753h-20.457c-1.753 0-3.507-1.753-1.753-3.507l27.47-42.667-29.224-44.42c-1.753-1.753 0-3.507 1.753-3.507h18.703c1.753 0 1.753 0 1.753 1.753l16.95 27.47 16.95-27.47 1.753-1.753h18.703c1.753 0 3.507 1.753 1.753 3.507l-25.717 44.42zM2174.247 858.301c32.731 0 54.941 22.21 54.941 54.941 0 27.47-20.457 46.174-46.174 46.174-32.731 0-54.941-22.21-54.941-54.941 0-26.886 22.21-46.174 46.174-46.174zM654.612 749.005h-11.689c-16.95 0-25.717 8.767-20.457 29.224l29.224 152.548c3.507 16.95-5.26 29.224-22.21 29.224h-23.963c-16.95 0-25.717-11.689-29.224-29.224l-29.224-152.548c-3.507-20.457-11.689-29.224-29.224-29.224h-42.667c-16.95 0-27.47-7.014-29.224-22.21l-3.507-23.963c-7.014-16.95 3.507-23.963 20.457-23.963h34.484c16.95 0 25.717-10.521 20.457-32.731l-29.224-152.548c-11.689-59.616-54.941-97.607-97.607-97.607s-73.644 37.406-63.123 97.607l40.913 210.411c5.26 25.717-7.014 42.667-32.731 42.667h-112.804c-118.064 0-215.671-106.374-215.671-250.155 0-107.543 63.123-171.251 143.781-171.251 42.667 0 71.89 20.457 97.607 46.174 8.767 8.767 13.443 11.689 20.457 11.689s11.689-3.507 20.457-11.689c20.457-20.457 51.434-46.174 97.607-46.174 42.667 0 80.658 20.457 106.374 46.174 8.767 8.767 13.443 11.689 20.457 11.689s11.689-3.507 20.457-11.689c20.457-20.457 54.941-46.174 106.374-46.174 101.114 0 189.954 92.347 189.954 227.361-0.584 136.183-84.164 196.384-176.511 196.384zM282.886 646.137l-29.224-152.548c-11.689-59.616-51.434-97.607-92.347-97.607-51.434 0-71.89 46.174-71.89 106.374 0 101.114 51.434 176.511 126.831 176.511h46.174c15.196 0 23.963-10.521 20.457-32.731zM640.584 398.32c-46.174 0-87.087 37.406-75.397 97.607l29.224 152.548c3.507 20.457 11.689 32.731 29.224 32.731h20.457c54.941 0 106.374-35.653 106.374-125.078 1.169-99.945-54.941-157.808-109.881-157.808zM1989.553 553.79c0 135.014-83.58 195.215-178.265 195.215h-11.689c-16.95 0-25.717 8.767-20.457 29.224l29.224 152.548c3.507 16.95-5.26 29.224-22.21 29.224h-23.963c-16.95 0-25.717-11.689-29.224-29.224l-29.224-152.548c-3.507-20.457-11.689-29.224-29.224-29.224h-42.667c-16.95 0-27.47-7.014-29.224-22.21l-3.507-23.963c-1.753-15.196 7.014-22.21 23.963-22.21h35.653c16.95 0 25.717-10.521 20.457-32.731l-29.224-152.548c-11.689-59.616-54.941-97.607-97.607-97.607s-73.644 37.406-63.123 97.607l42.667 224.438c3.507 16.95-5.26 29.224-22.21 29.224h-23.963c-16.95 0-25.717-11.689-29.224-29.224l-42.667-224.438c-10.521-59.616-54.941-97.607-106.374-97.607s-90.594 37.406-71.89 138.521l20.457 109.297c3.507 20.457 11.689 32.731 29.224 32.731h66.63c16.95 0 27.47 7.014 29.224 22.21l3.507 23.963c1.753 15.196-7.014 22.21-23.963 22.21h-61.37c-16.95 0-25.717 8.767-20.457 29.224l29.224 152.548c3.507 16.95-5.26 29.224-22.21 29.224h-23.963c-16.95 0-25.717-11.689-29.224-29.224l-29.224-152.548c-3.507-20.457-11.689-29.224-29.224-29.224h-42.667c-16.95 0-27.47-7.014-29.224-22.21l-3.507-23.963c-1.753-15.196 7.014-22.21 23.963-22.21h35.653c16.95 0 25.717-10.521 20.457-32.731l-29.224-152.548c-11.689-59.616-59.616-97.607-101.114-97.607-42.667 0-71.89 29.224-59.616 97.607l37.406 212.164c5.26 25.717-7.014 42.667-32.731 42.667h-101.114c-16.95 0-27.47-7.014-29.224-22.21l-3.507-23.963c-1.753-15.196 7.014-22.21 23.963-22.21h35.653c16.95 0 25.717-10.521 20.457-32.731l-29.224-152.548c-18.703-101.114 34.484-169.498 126.831-169.498 51.434 0 87.087 20.457 114.557 46.174 8.767 8.767 13.443 11.689 20.457 11.689s11.689-3.507 20.457-11.689c25.717-25.717 54.941-46.174 106.374-46.174 46.174 0 80.658 20.457 106.374 46.174 8.767 8.767 13.443 11.689 20.457 11.689s11.689-3.507 20.457-11.689c20.457-20.457 51.434-46.174 97.607-46.174 42.667 0 80.658 20.457 106.374 46.174 8.767 8.767 13.443 11.689 20.457 11.689s11.689-3.507 20.457-11.689c20.457-20.457 54.941-46.174 106.374-46.174 102.283 1.753 191.708 94.1 191.708 229.114zM1799.598 398.32c-46.174 0-87.087 37.406-75.397 97.607l29.224 152.548c3.507 20.457 11.689 32.731 29.224 32.731h20.457c54.941 0 106.374-35.653 106.374-125.078-0.584-99.945-55.525-157.808-109.881-157.808zM2225.68 400.073c-11.689 0-20.457-1.753-34.484-1.753-34.484 0-59.616 29.224-46.174 97.607l40.913 210.411c5.26 25.717-7.014 42.667-32.731 42.667h-101.114c-16.95 0-27.47-7.014-29.224-22.21l-3.507-23.963c-1.753-15.196 7.014-22.21 23.963-22.21h35.653c16.95 0 25.717-10.521 20.457-32.731l-29.224-152.548c-18.703-101.114 34.484-169.498 114.557-169.498 20.457 0 37.406 3.507 46.174 8.767 8.767 3.507 16.95 11.689 16.95 25.717v20.457c-1.753 12.274-10.521 19.288-22.21 19.288zM1016.986 858.301c32.731 0 54.941 22.21 54.941 54.941 0 27.47-20.457 46.174-46.174 46.174-32.731 0-54.941-22.21-54.941-54.941 0-26.886 20.457-46.174 46.174-46.174zM1514.959 858.301c32.731 0 54.941 22.21 54.941 54.941 0 27.47-20.457 46.174-46.174 46.174-32.731 0-54.941-22.21-54.941-54.941 0-26.886 21.041-46.174 46.174-46.174zM2648.256 394.813h-280.548c-16.95 0-27.47-7.014-29.224-22.21l-1.753-20.457c-1.753-15.196 7.014-25.717 18.703-25.717h284.055c16.95 0 27.47 7.014 29.224 22.21l1.753 23.963c1.753 15.196-5.26 22.21-22.21 22.21zM2571.105 677.114c-5.26 7.014-10.521 11.689-10.521 16.95s5.26 8.767 10.521 11.689c34.484 20.457 63.123 59.616 63.123 101.114 0 46.174-42.667 92.347-109.297 92.347s-114.557-46.174-114.557-97.607c0-29.224 8.767-49.68 22.21-70.137 3.507-5.26 7.014-10.521 7.014-15.196 0-5.26-7.014-8.767-13.443-11.689-40.913-20.457-71.89-59.616-71.89-107.543 0-75.397 63.123-118.064 126.831-118.064 42.667 0 75.397 16.95 97.607 37.406 8.767 8.767 11.689 11.689 16.95 11.689s8.767-3.507 11.689-8.767l20.457-25.717c8.767-10.521 20.457-11.689 29.224-3.507l25.717 20.457c8.767 8.767 8.767 18.703 0 29.224l-111.635 137.352zM2524.932 841.352c20.457 0 37.406-16.95 37.406-37.406s-11.689-37.406-34.484-54.941c-3.507-1.753-5.26-3.507-8.767-3.507s-5.26 1.753-7.014 3.507c-15.196 16.95-25.717 34.484-25.717 51.434 1.169 23.963 18.119 40.913 38.575 40.913zM2545.388 566.064c-16.95-11.689-34.484-20.457-54.941-20.457-29.224 0-59.616 16.95-59.616 54.941 0 25.717 16.95 46.174 37.406 59.616 3.507 1.753 8.767 3.507 11.689 3.507s5.26-1.753 8.767-3.507l58.447-66.63c3.507-5.26 5.26-8.767 5.26-13.443 1.753-5.845-1.753-11.105-7.014-14.027zM3273.059 749.005c-109.297 0-195.215-101.114-195.215-241.388 0-11.689-1.753-25.717-8.767-34.484-29.224-42.667-75.397-75.397-123.324-75.397-63.123 0-92.347 51.434-92.347 118.064 0 92.347 51.434 160.731 109.297 160.731 20.457 0 42.667-8.767 59.616-16.95 10.521-5.26 23.963-1.753 29.224 7.014l13.443 27.47c3.507 8.767 3.507 20.457-8.767 29.224-16.95 11.689-51.434 25.717-88.84 25.717-106.374 0-189.954-101.114-189.954-241.388 0-106.374 59.616-181.187 160.731-181.187 59.616 0 106.374 20.457 138.521 59.616 7.014 8.767 13.443 16.95 20.457 16.95s11.689-8.767 16.95-16.95c25.717-37.406 54.941-59.616 114.557-59.616 109.297 0 195.215 101.114 195.215 241.388 1.169 104.037-61.954 181.187-150.795 181.187zM3238.575 398.32c-51.434 0-83.58 51.434-83.58 118.064 0 92.347 51.434 160.731 109.297 160.731 51.434 0 83.58-51.434 83.58-118.064 0.584-94.1-49.096-160.731-109.297-160.731zM3529.644 426.959c-32.731 0-54.941-22.21-54.941-54.941 0-27.47 20.457-46.174 46.174-46.174 32.731 0 54.941 22.21 54.941 54.941 1.753 27.47-20.457 46.174-46.174 46.174z" horiz-adv-x="3576" />
<glyph unicode="&#xe602;" d="M3497.412 796.235c52.706 0 88.471 35.765 88.471 88.471 0 44.235-32.941 74.353-74.353 74.353-52.706 0-88.471-35.765-88.471-88.471 0-44.235 32.941-74.353 74.353-74.353zM1044.706 619.294h-21.647c-27.294 0-41.412 14.118-32.941 47.059l47.059 245.647c5.647 27.294-8.471 47.059-35.765 47.059h-38.588c-27.294 0-41.412-19.765-47.059-47.059l-47.059-245.647c-5.647-32.941-19.765-47.059-47.059-47.059h-68.706c-27.294 0-44.235-11.294-47.059-35.765l-5.647-38.588c-2.824-24.471 11.294-35.765 38.588-35.765h58.353c27.294 0 41.412-16.941 32.941-52.706l-47.059-245.647c-20.706-96.941-89.412-158.118-159.059-158.118-68.706 0-118.588 61.176-102.588 157.176l65.882 339.765c8.471 41.412-11.294 68.706-52.706 68.706h-183.529c-193.882 0.941-351.059-170.353-351.059-402.824 0-176.941 102.588-278.588 232.471-278.588 68.706 0 115.765 32.941 157.176 74.353 14.118 14.118 21.647 19.765 32.941 19.765s19.765-5.647 32.941-19.765c32.941-32.941 82.824-74.353 157.176-74.353 68.706 0 129.882 32.941 171.294 74.353 14.118 14.118 21.647 19.765 32.941 19.765s19.765-5.647 32.941-19.765c32.941-32.941 88.471-74.353 171.294-74.353 162.824 0 306.824 149.647 306.824 367.059 0.941 218.353-134.588 315.294-283.294 315.294zM442.353 453.647l-47.059-245.647c-19.765-96.941-82.824-157.176-149.647-157.176-82.824 0-115.765 74.353-115.765 171.294 0 162.824 82.824 284.235 204.235 284.235h74.353c28.235 0 41.412-16.941 33.882-52.706zM1022.118 52.706c-74.353 0-141.176 61.176-121.412 157.176l47.059 245.647c5.647 32.941 19.765 52.706 47.059 52.706h32.941c88.471 0 171.294-58.353 171.294-201.412 0-160-88.471-254.118-176.941-254.118zM3199.059 304c0 218.353-135.529 315.294-287.059 315.294h-19.765c-27.294 0-41.412 14.118-32.941 47.059l47.059 245.647c5.647 27.294-8.471 47.059-35.765 47.059h-38.588c-27.294 0-41.412-19.765-47.059-47.059l-49.882-245.647c-5.647-32.941-19.765-47.059-47.059-47.059h-68.706c-27.294 0-44.235-11.294-47.059-35.765l-5.647-38.588c-2.824-24.471 11.294-35.765 38.588-35.765h58.353c27.294 0 41.412-16.941 32.941-52.706l-47.059-245.647c-19.765-96.941-88.471-157.176-157.176-157.176s-118.588 61.176-102.588 157.176l68.706 362.353c5.647 27.294-8.471 47.059-35.765 47.059h-38.588c-27.294 0-41.412-19.765-47.059-47.059l-68.706-362.353c-16.941-96.941-88.471-157.176-171.294-157.176s-146.824 61.176-115.765 224l32.941 176.941c5.647 32.941 19.765 52.706 47.059 52.706h107.294c27.294 0 44.235 11.294 47.059 35.765l5.647 38.588c2.824 24.471-11.294 35.765-38.588 35.765h-99.765c-27.294 0-41.412 14.118-32.941 47.059l49.882 248.471c5.647 27.294-8.471 47.059-35.765 47.059h-38.588c-27.294 0-41.412-19.765-47.059-47.059l-47.059-245.647c-5.647-32.941-19.765-47.059-47.059-47.059h-68.706c-27.294 0-44.235-11.294-47.059-35.765l-5.647-38.588c-2.824-24.471 11.294-35.765 38.588-35.765h58.353c27.294 0 41.412-16.941 32.941-52.706l-47.059-245.647c-19.765-96.941-96.941-157.176-162.824-157.176-68.706 0-115.765 47.059-96.941 157.176l65.882 339.765c8.471 41.412-11.294 68.706-52.706 68.706h-162.824c-27.294 0-44.235-11.294-47.059-35.765l-5.647-38.588c-2.824-24.471 11.294-35.765 38.588-35.765h58.353c27.294 0 41.412-16.941 32.941-52.706l-47.059-245.647c-30.118-162.824 55.529-273.882 204.235-273.882 82.824 0 141.176 32.941 185.412 74.353 14.118 14.118 21.647 19.765 32.941 19.765s19.765-5.647 32.941-19.765c41.412-41.412 88.471-74.353 171.294-74.353 74.353 0 129.882 32.941 171.294 74.353 14.118 14.118 21.647 19.765 32.941 19.765s19.765-5.647 32.941-19.765c32.941-32.941 82.824-74.353 157.176-74.353 68.706 0 129.882 32.941 171.294 74.353 14.118 14.118 21.647 19.765 32.941 19.765s19.765-5.647 32.941-19.765c32.941-32.941 88.471-74.353 171.294-74.353 159.059-0.941 303.059 147.765 303.059 366.118zM2892.235 52.706c-74.353 0-141.176 61.176-121.412 157.176l47.059 245.647c5.647 32.941 19.765 52.706 47.059 52.706h32.941c88.471 0 171.294-58.353 171.294-201.412 0-160-88.471-254.118-176.941-254.118zM3580.235 55.529c-19.765 0-32.941-2.824-55.529-2.824-55.529 0-96.941 47.059-74.353 157.176l65.882 339.765c8.471 41.412-11.294 68.706-52.706 68.706h-162.824c-27.294 0-44.235-11.294-47.059-35.765l-5.647-38.588c-2.824-24.471 11.294-35.765 38.588-35.765h58.353c27.294 0 41.412-16.941 32.941-52.706l-47.059-245.647c-30.118-162.824 55.529-273.882 185.412-273.882 32.941 0 61.176 5.647 74.353 14.118 14.118 5.647 27.294 19.765 27.294 41.412v32.941c-4.706 19.765-17.882 31.059-37.647 31.059zM1630.118 796.235c52.706 0 88.471 35.765 88.471 88.471 0 44.235-32.941 74.353-74.353 74.353-52.706 0-88.471-35.765-88.471-88.471 0-44.235 32.941-74.353 74.353-74.353zM2433.882 796.235c52.706 0 88.471 35.765 88.471 88.471 0 44.235-32.941 74.353-74.353 74.353-52.706 0-88.471-35.765-88.471-88.471 0-44.235 32.941-74.353 74.353-74.353zM4262.588 47.059h-452.706c-27.294 0-44.235-11.294-47.059-35.765l-2.824-32.941c-2.824-24.471 11.294-41.412 30.118-41.412h458.353c27.294 0 44.235 11.294 47.059 35.765l2.824 38.588c2.824 25.412-10.353 35.765-35.765 35.765zM4138.353 503.529c-8.471 11.294-16.941 19.765-16.941 27.294s8.471 14.118 16.941 19.765c55.529 32.941 102.588 96.941 102.588 162.824 0 74.353-68.706 149.647-176.941 149.647-107.294 0-185.412-74.353-185.412-157.176 0-47.059 14.118-80 35.765-112.941 5.647-8.471 11.294-16.941 11.294-24.471s-11.294-14.118-21.647-19.765c-65.882-32.941-115.765-96.941-115.765-174.118 0-121.412 102.588-191.059 204.235-191.059 68.706 0 121.412 27.294 157.176 61.176 14.118 14.118 19.765 19.765 27.294 19.765s14.118-5.647 19.765-14.118l32.941-41.412c14.118-16.941 32.941-19.765 47.059-5.647l41.412 32.941c14.118 14.118 14.118 30.118 0 47.059l-179.765 220.235zM4064 768c32.941 0 61.176-27.294 61.176-61.176s-19.765-61.176-55.529-88.471c-5.647-2.824-8.471-5.647-14.118-5.647s-8.471 2.824-11.294 5.647c-24.471 27.294-41.412 55.529-41.412 82.824 0 39.529 28.235 66.824 61.176 66.824zM4096.941 323.765c-27.294-19.765-55.529-32.941-88.471-32.941-47.059 0-96.941 27.294-96.941 88.471 0 41.412 27.294 74.353 61.176 96.941 5.647 2.824 14.118 5.647 19.765 5.647s8.471-2.824 14.118-5.647l94.118-107.294c5.647-8.471 8.471-14.118 8.471-21.647 1.882-9.412-3.765-17.882-12.235-23.529zM5270.588 619.294c-176.941 0-315.294-162.824-315.294-389.647 0-19.765-2.824-41.412-14.118-55.529-47.059-68.706-121.412-121.412-198.588-121.412-102.588 0-149.647 82.824-149.647 191.059 0 149.647 82.824 259.765 176.941 259.765 32.941 0 68.706-14.118 96.941-27.294 16.941-8.471 38.588-2.824 47.059 11.294l21.647 44.235c5.647 14.118 5.647 32.941-14.118 47.059-27.294 19.765-82.824 41.412-144 41.412-171.294 0-306.824-162.824-306.824-389.647 0-171.294 96.941-292.706 259.765-292.706 96.941 0 171.294 32.941 224 96.941 11.294 14.118 21.647 27.294 32.941 27.294s19.765-14.118 27.294-27.294c41.412-61.176 88.471-96.941 185.412-96.941 176.941 0 315.294 162.824 315.294 389.647 1.882 167.529-100.706 291.765-244.706 291.765zM5216 52.706c-82.824 0-135.529 82.824-135.529 191.059 0 149.647 82.824 259.765 176.941 259.765 82.824 0 135.529-82.824 135.529-191.059 0-151.529-80.941-259.765-176.941-259.765zM5685.647 99.765c-52.706 0-88.471-35.765-88.471-88.471 0-44.235 32.941-74.353 74.353-74.353 52.706 0 88.471 35.765 88.471 88.471 0 44.235-32.941 74.353-74.353 74.353z" horiz-adv-x="5760" />
<glyph unicode="&#xe603;" d="M1044.48 618.667h-20.48c-27.307 0-40.96 13.653-34.133 47.787l47.787 245.76c5.461 27.307-9.557 47.787-36.864 47.787h-38.229c-27.307 0-42.325-20.48-47.787-47.787l-47.787-245.76c-6.827-34.133-20.48-47.787-47.787-47.787h-68.267c-27.307 0-43.691-10.923-47.787-36.864l-6.827-38.229c-4.096-25.941 10.923-36.864 38.229-36.864h57.344c27.307 0 40.96-17.749 34.133-51.883l-47.787-245.76c-19.115-95.573-88.747-157.013-157.013-157.013s-120.149 61.44-102.4 157.013l65.536 341.333c8.192 40.96-10.923 68.267-51.883 68.267h-184.32c-191.147 0-348.16-170.667-348.16-402.773 0-177.493 102.4-279.893 232.107-279.893 68.267 0 116.053 34.133 157.013 75.093 13.653 13.653 23.211 20.48 34.133 20.48s20.48-6.827 34.133-20.48c34.133-34.133 81.92-75.093 157.013-75.093 68.267 0 129.707 34.133 170.667 75.093 13.653 13.653 23.211 20.48 34.133 20.48s20.48-6.827 34.133-20.48c34.133-34.133 88.747-75.093 170.667-75.093 163.84 0 307.2 150.187 307.2 368.64s-136.533 314.027-286.72 314.027zM443.733 454.827l-47.787-245.76c-19.115-95.573-81.92-157.013-150.187-157.013-81.92 0-116.053 75.093-116.053 170.667 0 163.84 81.92 283.989 204.8 283.989h75.093c27.307 0 40.96-17.749 34.133-51.883zM1024 52.053c-75.093 0-141.995 61.44-122.88 157.013l47.787 245.76c6.827 34.133 20.48 51.883 47.787 51.883h34.133c88.747 0 170.667-58.709 170.667-202.069 0-157.013-88.747-252.587-177.493-252.587zM2164.053 618.667h-20.48c-27.307 0-40.96 13.653-34.133 47.787l47.787 245.76c5.461 27.307-9.557 47.787-36.864 47.787h-38.229c-27.307 0-42.325-20.48-47.787-47.787l-136.533-703.147c-19.115-95.573-88.747-157.013-177.493-157.013-75.093 0-140.629 61.44-116.053 191.147l40.96 211.627c6.827 34.133 20.48 51.883 47.787 51.883h109.227c27.307 0 43.691 10.923 47.787 36.864l6.827 38.229c4.096 25.941-10.923 36.864-38.229 36.864h-98.304c-27.307 0-40.96 13.653-34.133 47.787l47.787 245.76c5.461 27.307-9.557 47.787-36.864 47.787h-38.229c-27.307 0-42.325-20.48-47.787-47.787l-47.787-245.76c-6.827-34.133-20.48-47.787-47.787-47.787h-68.267c-27.307 0-43.691-10.923-47.787-36.864l-6.827-38.229c-4.096-25.941 10.923-36.864 38.229-36.864h57.344c27.307 0 40.96-17.749 34.133-51.883l-40.96-211.627c-35.499-184.32 81.92-307.2 225.28-307.2 75.093 0 143.36 31.403 195.243 75.093 16.384 13.653 25.941 20.48 36.864 20.48s20.48-6.827 34.133-20.48c34.133-34.133 88.747-75.093 170.667-75.093 163.84 0 307.2 150.187 307.2 368.64s-136.533 314.027-286.72 314.027zM2143.573 52.053c-75.093 0-141.995 61.44-122.88 157.013l47.787 245.76c6.827 34.133 20.48 51.883 47.787 51.883h34.133c88.747 0 170.667-58.709 170.667-202.069 0-157.013-88.747-252.587-177.493-252.587zM3092.48 47.957h-453.291c-27.307 0-45.056-10.923-47.787-36.864l-4.096-34.133c-2.731-25.941 10.923-40.96 31.403-40.96h460.117c27.307 0 45.056 10.923 47.787 36.864l4.096 38.229c2.731 25.941-10.923 36.864-38.229 36.864zM2969.6 502.613c-9.557 10.923-17.749 19.115-17.749 27.307s8.192 13.653 17.749 20.48c54.613 34.133 102.4 95.573 102.4 163.84 0 75.093-68.267 150.187-177.493 150.187s-184.32-75.093-184.32-157.013c0-47.787 13.653-79.189 36.864-113.323 6.827-9.557 12.288-17.749 12.288-25.941s-10.923-15.019-21.845-20.48c-66.901-32.768-116.053-95.573-116.053-174.763 0-122.88 102.4-191.147 204.8-191.147 68.267 0 122.88 27.307 157.013 61.44 13.653 13.653 19.115 20.48 27.307 20.48s13.653-5.461 20.48-13.653l34.133-40.96c13.653-16.384 32.768-19.115 47.787-6.827l40.96 34.133c15.019 13.653 13.653 31.403 0 47.787l-184.32 218.453zM2894.507 768.853c34.133 0 61.44-27.307 61.44-61.44s-20.48-61.44-54.613-88.747c-5.461-4.096-9.557-6.827-15.019-6.827s-8.192 2.731-12.288 6.827c-24.576 27.307-40.96 54.613-40.96 81.92 0 40.96 27.307 68.267 61.44 68.267zM2928.64 325.12c-27.307-20.48-54.613-34.133-88.747-34.133-47.787 0-95.573 27.307-95.573 88.747 0 40.96 27.307 75.093 61.44 95.573 6.827 4.096 15.019 6.827 20.48 6.827s9.557-2.731 13.653-6.827l92.843-107.861c6.827-8.192 9.557-15.019 9.557-21.845s-6.827-15.019-13.653-20.48zM4102.827 618.667c-177.493 0-314.027-163.84-314.027-389.12 0-20.48-4.096-40.96-13.653-54.613-47.787-68.267-122.88-122.88-197.973-122.88-102.4 0-150.187 81.92-150.187 191.147 0 150.187 81.92 259.413 177.493 259.413 34.133 0 68.267-13.653 95.573-27.307 17.749-8.192 38.229-4.096 46.421 10.923l21.845 43.691c6.827 13.653 5.461 32.768-13.653 47.787-27.307 20.48-81.92 40.96-143.36 40.96-170.667 0-307.2-163.84-307.2-389.12 0-170.667 95.573-293.547 259.413-293.547 95.573 0 170.667 34.133 225.28 95.573 12.288 13.653 23.211 27.307 34.133 27.307s19.115-13.653 27.307-27.307c40.96-61.44 88.747-95.573 184.32-95.573 177.493 0 314.027 163.84 314.027 389.12 0 170.667-102.4 293.547-245.76 293.547zM4048.213 52.053c-81.92 0-136.533 81.92-136.533 191.147 0 150.187 81.92 259.413 177.493 259.413 81.92 0 136.533-81.92 136.533-191.147 0-150.187-81.92-259.413-177.493-259.413zM4519.253 99.84c-51.883 0-88.747-35.499-88.747-88.747 0-43.691 34.133-75.093 75.093-75.093 51.883 0 88.747 35.499 88.747 88.747 0 43.691-34.133 75.093-75.093 75.093z" horiz-adv-x="4594" />
<glyph unicode="&#xe604;" d="M512 960c-283.022 0-512-228.978-512-512s228.978-512 512-512c283.022 0 512 228.978 512 512s-228.978 512-512 512zM664.178 659.911c0 0-51.2 0-71.111 0-25.6 0-29.867-9.956-29.867-36.978 0-21.333 0-62.578 0-62.578h102.4l-9.956-110.933h-92.444v-331.378h-132.267v329.956h-68.267v112.356h68.267c0 0 0 15.644 0 88.178 0 82.489 44.089 126.578 142.222 126.578 15.644 0 91.022 0 91.022 0v-115.2z" />
<glyph unicode="&#xe605;" d="M512 960c-283.022 0-512-228.978-512-512s228.978-512 512-512c283.022 0 512 228.978 512 512s-228.978 512-512 512zM769.422 536.178c7.111-166.4-116.622-352.711-337.067-352.711-66.844 0-129.422 19.911-182.044 54.044 62.578-7.111 126.578 9.956 176.356 49.778-52.622 1.422-95.289 35.556-110.933 82.489 18.489-2.844 36.978-2.844 54.044 1.422-56.889 11.378-96.711 62.578-95.289 118.044 15.644-8.533 34.133-14.222 54.044-14.222-52.622 35.556-68.267 105.244-36.978 157.867 58.311-72.533 146.489-119.467 244.622-123.733-17.067 73.956 38.4 146.489 115.2 146.489 34.133 0 65.422-14.222 86.756-36.978 27.022 5.689 52.622 15.644 75.378 28.444-8.533-28.444-27.022-51.2-52.622-65.422 24.178 2.844 46.933 9.956 68.267 18.489-17.067-25.6-36.978-46.933-59.733-64z" />
<glyph unicode="&#xe606;" d="M755.2 671.289v-62.578c0-9.956-8.533-18.489-18.489-18.489h-61.156c-9.956 0-18.489 8.533-18.489 18.489v62.578c0 9.956 8.533 18.489 18.489 18.489h61.156c11.378 0 18.489-7.111 18.489-18.489zM520.533 361.244c46.933 0 83.911 36.978 83.911 83.911s-36.978 83.911-83.911 83.911-83.911-36.978-83.911-83.911c0-45.511 36.978-83.911 83.911-83.911zM1024 448c0-283.022-228.978-512-512-512s-512 228.978-512 512c0 283.022 228.978 512 512 512s512-228.978 512-512zM807.822 530.489h-167.822c17.067-24.178 27.022-54.044 27.022-85.333 0-81.067-65.422-147.911-147.911-147.911-81.067 0-147.911 65.422-147.911 147.911 0 31.289 9.956 61.156 27.022 85.333h-167.822v-258.844c0-62.578 51.2-113.778 113.778-113.778h348.444c62.578 0 113.778 51.2 113.778 113.778v258.844zM519.111 332.8c62.578 0 113.778 51.2 113.778 113.778 0 34.133-15.644 64-38.4 85.333-8.533 7.111-17.067 12.8-28.444 18.489-14.222 7.111-29.867 9.956-46.933 9.956s-32.711-4.267-46.933-9.956c-9.956-4.267-19.911-11.378-28.444-18.489-24.178-21.333-38.4-51.2-38.4-85.333 1.422-64 51.2-113.778 113.778-113.778zM807.822 624.356c0 62.578-51.2 113.778-113.778 113.778h-311.467v-143.644h-22.756v143.644h-12.8c-1.422 0-1.422 0-2.844 0v-143.644h-22.756v140.8c-5.689-1.422-11.378-2.844-17.067-5.689v-135.111h-22.756v122.311c-28.444-21.333-48.356-54.044-48.356-92.444v-75.378h182.044c27.022 27.022 64 44.089 105.244 44.089s78.222-17.067 105.244-44.089h183.467l-1.422 75.378z" />
<glyph unicode="&#xe607;" d="M512 960c-283.022 0-512-228.978-512-512s228.978-512 512-512c283.022 0 512 228.978 512 512s-228.978 512-512 512zM578.844 280.178c-39.822 0-78.222 21.333-91.022 45.511 0 0-21.333-85.333-25.6-102.4-15.644-58.311-62.578-116.622-66.844-120.889-2.844-2.844-8.533-2.844-8.533 1.422-1.422 7.111-12.8 81.067 1.422 140.8 7.111 29.867 48.356 201.956 48.356 201.956s-11.378 24.178-11.378 58.311c0 55.467 31.289 95.289 71.111 95.289 34.133 0 49.778-25.6 49.778-55.467 0-34.133-21.333-83.911-32.711-130.844-9.956-39.822 19.911-71.111 58.311-71.111 69.689 0 118.044 89.6 118.044 197.689 0 81.067-54.044 142.222-153.6 142.222-112.356 0-182.044-83.911-182.044-177.778 0-32.711 9.956-55.467 24.178-72.533 7.111-8.533 7.111-11.378 5.689-21.333-1.422-7.111-5.689-22.756-7.111-29.867-2.844-9.956-9.956-12.8-18.489-9.956-51.2 21.333-75.378 78.222-75.378 142.222 0 105.244 88.178 231.822 264.533 231.822 140.8 0 234.667-102.4 234.667-211.911-2.844-145.067-83.911-253.156-203.378-253.156z" />
<glyph unicode="&#xe608;" d="M512 960c-282.873 0-512-229.127-512-512s229.127-512 512-512c282.873 0 512 229.127 512 512s-229.127 512-512 512zM710.011 170.785c-26.873-12.729-49.503-21.215-70.718-25.459s-43.845-7.072-69.304-7.072c-28.287 0-52.331 2.829-73.547 11.315-21.215 7.072-39.602 16.972-55.16 29.702s-25.459 26.873-31.116 41.017c-5.657 14.144-8.486 36.773-8.486 63.646v214.983h-66.475v87.691c24.044 8.486 43.845 18.387 62.232 33.945 16.972 14.144 31.116 32.53 41.017 52.331s16.972 46.674 21.215 77.79h86.276v-155.58h145.68v-96.177h-145.68v-156.994c0-35.359 1.414-57.989 5.657-67.89s11.315-18.387 21.215-24.044c14.144-8.486 29.702-12.729 46.674-12.729 31.116 0 62.232 9.901 91.934 29.702v-96.177h-1.414z" />
<glyph unicode="&#xe609;" d="M702.171 601.6l-153.6 358.4-153.6-358.4-394.971-32.914 299.886-252.343-91.429-380.343 340.114 201.143 340.114-201.143-91.429 380.343 299.886 252.343z" horiz-adv-x="1097" />
<glyph unicode="&#xe60a;" d="M548.571 868.571l120.686-281.6 7.314-21.943h21.943l307.2-25.6-234.057-197.486-18.286-14.629 3.657-21.943 69.486-296.229-263.314 157.257-14.629 14.629-18.286-10.971-263.314-157.257 69.486 296.229 3.657 21.943-18.286 14.629-234.057 197.486 307.2 25.6h21.943l7.314 21.943 124.343 277.943zM548.571 960l-153.6-358.4-394.971-32.914 299.886-256-91.429-376.686 340.114 201.143 340.114-201.143-91.429 380.343 299.886 256-394.971 29.257-153.6 358.4z" horiz-adv-x="1097" />
<glyph unicode="&#xe60b;" d="M503.607 960c-276.984 0-503.607-230.82-503.607-512 0-285.377 226.623-512 503.607-512s503.607 230.82 503.607 512c-4.197 281.18-226.623 512-503.607 512zM503.607 28.328c-230.82 0-419.672 188.852-419.672 419.672s188.852 419.672 419.672 419.672 419.672-188.852 419.672-419.672c0-230.82-188.852-419.672-419.672-419.672zM755.41 448c0-139.067-112.736-251.803-251.803-251.803s-251.803 112.736-251.803 251.803c0 139.067 112.736 251.803 251.803 251.803s251.803-112.736 251.803-251.803z" horiz-adv-x="1003" />
<glyph unicode="&#xe60c;" d="M111.709 448l434.424 431.321c18.618 18.618 18.618 46.545 0 65.164s-46.545 18.618-65.164 0l-465.455-465.455c-18.618-18.618-18.618-46.545 0-65.164l465.455-465.455c9.309-9.309 21.721-12.412 34.133-12.412s24.824 3.103 34.133 12.412c18.618 18.618 18.618 46.545 0 65.164l-437.527 434.424z" horiz-adv-x="559" />
<glyph unicode="&#xe60d;" d="M1261.568 960l-245.76-49.152c-20.48-4.096-32.768-20.48-32.768-40.96v-163.84h-942.080c-16.384 0-28.672-8.192-36.864-20.48s-4.096-32.768 4.096-45.056l225.28-331.776c8.192-12.288 20.48-16.384 32.768-16.384h667.648v-90.112h-565.248c0 0 0 0 0 0s-4.096 0-4.096 0c-73.728 0-131.072-61.44-131.072-135.168s57.344-131.072 131.072-131.072c73.728 0 131.072 61.44 131.072 135.168 0 16.384-4.096 36.864-8.192 53.248h331.776c-8.192-16.384-8.192-32.768-8.192-53.248 0-73.728 57.344-135.168 131.072-135.168s131.072 61.44 131.072 135.168c0 45.056-20.48 81.92-53.248 106.496v118.784h4.096c24.576 0 40.96 16.384 40.96 40.96v327.68c0 0 0 4.096 0 4.096s0 4.096 0 4.096v163.84l212.992 40.96c20.48 4.096 36.864 24.576 32.768 49.152-4.096 20.48-24.576 36.864-49.152 32.768zM364.544 17.92c-28.672 0-49.152 24.576-49.152 53.248s20.48 53.248 49.152 53.248c28.672 0 49.152-24.576 49.152-53.248s-24.576-53.248-49.152-53.248zM942.080 17.92c-28.672 0-49.152 24.576-49.152 53.248s20.48 53.248 49.152 53.248 49.152-24.576 49.152-53.248-24.576-53.248-49.152-53.248zM118.784 624.128h864.256v-249.856h-692.224l-172.032 249.856z" horiz-adv-x="1311" />
<glyph unicode="&#xe60e;" d="M1011.588 84.945l-257.552 254.448c-18.618 18.618-46.545 18.618-65.164 0l-3.103-3.103-12.412 12.412c52.752 65.164 80.679 145.842 80.679 232.727 0 99.297-40.339 195.491-111.709 266.861s-164.461 111.709-263.758 111.709-195.491-40.339-266.861-111.709c-71.37-71.37-111.709-164.461-111.709-266.861 0-99.297 40.339-195.491 111.709-266.861s164.461-111.709 266.861-111.709c83.782 0 164.461 27.927 229.624 77.576l12.412-12.412c-9.309-9.309-12.412-21.721-12.412-34.133s6.206-24.824 12.412-34.133l257.552-257.552c9.309-9.309 21.721-12.412 34.133-12.412s24.824 3.103 34.133 12.412l68.267 68.267c9.309 9.309 12.412 21.721 12.412 34.133s-9.309 31.030-15.515 40.339zM176.873 382.836c-52.752 52.752-83.782 124.121-83.782 198.594s31.030 145.842 83.782 201.697 124.121 83.782 201.697 83.782 145.842-31.030 201.697-83.782 83.782-124.121 83.782-201.697c0-74.473-31.030-145.842-83.782-201.697s-124.121-83.782-201.697-83.782-148.945 31.030-201.697 86.885zM909.188 47.709l-189.285 189.285 3.103 3.103 186.182-192.388z" />
<glyph unicode="&#xe60f;" d="M955.733 514.783h-376.951v376.951c0 35.617-29.681 65.299-65.299 65.299s-68.267-26.713-68.267-65.299v-376.951h-379.919c-35.617 0-65.299-29.681-65.299-68.267s29.681-65.299 65.299-65.299h379.919v-379.919c0-35.617 29.681-65.299 65.299-65.299s65.299 29.681 65.299 65.299v379.919h379.919c35.617 0 65.299 29.681 65.299 65.299s-26.713 68.267-65.299 68.267z" />
<glyph unicode="&#xe610;" d="M358.797 245.581c22.226-42.865 73.029-65.091 150.822-65.091 76.205 0 127.008 22.226 150.822 65.091 66.679 128.595-103.194 404.837-150.822 477.867-47.628-73.029-217.501-349.271-150.822-477.867zM395.312 310.673c-9.526 31.752 0 98.431 17.464 120.657s30.164 0 30.164 0c-1.588-63.504-34.927-158.76-47.628-120.657zM511.206 960c-282.592 0-511.206-228.614-511.206-511.206s228.614-511.206 511.206-511.206c282.592 0 511.206 228.614 511.206 511.206 1.588 282.592-227.026 511.206-511.206 511.206zM685.842 232.881c-28.577-53.978-87.318-80.967-176.223-80.967s-147.647 26.989-176.223 80.967c-85.73 163.522 153.997 511.206 163.522 527.082 4.763 7.938 19.051 7.938 23.814 0 11.113-15.876 250.84-363.56 165.11-527.082z" />
<glyph unicode="&#xe611;" d="M384 960c-211.2 0-384-166.4-384-371.2 0-67.2 19.2-134.4 54.4-192l300.8-448c6.4-9.6 16-12.8 25.6-12.8s19.2 6.4 25.6 12.8l300.8 448c35.2 57.6 54.4 124.8 54.4 192 6.4 204.8-166.4 371.2-377.6 371.2zM659.2 432l-275.2-406.4-275.2 406.4c-28.8 48-44.8 102.4-44.8 156.8 0 169.6 144 307.2 320 307.2s320-137.6 320-307.2c0-54.4-16-108.8-44.8-156.8zM537.6 588.8c0-84.831-68.769-153.6-153.6-153.6s-153.6 68.769-153.6 153.6c0 84.831 68.769 153.6 153.6 153.6s153.6-68.769 153.6-153.6z" horiz-adv-x="768" />
<glyph unicode="&#xe612;" d="M384 960c-211.2 0-384-166.4-384-371.2 0-67.2 19.2-134.4 54.4-192l300.8-448c6.4-9.6 16-12.8 25.6-12.8s19.2 6.4 25.6 12.8l300.8 448c35.2 57.6 54.4 124.8 54.4 192 6.4 204.8-166.4 371.2-377.6 371.2zM659.2 432l-275.2-406.4-275.2 406.4c-28.8 48-44.8 102.4-44.8 156.8 0 169.6 144 307.2 320 307.2s320-137.6 320-307.2c0-54.4-16-108.8-44.8-156.8zM412.8 748.8h-51.2l-76.8-60.8c-3.2-3.2-3.2-6.4-3.2-9.6v-35.2c0-6.4 3.2-9.6 9.6-9.6h51.2v-243.2c0-6.4 3.2-9.6 9.6-9.6h60.8c6.4 0 9.6 6.4 9.6 9.6v348.8c0 6.4-3.2 9.6-9.6 9.6z" horiz-adv-x="768" />
<glyph unicode="&#xe613;" d="M12.164 482.133l465.455 465.455c18.618 18.618 46.545 18.618 65.164 0s18.618-46.545 0-65.164l-431.321-431.321 431.321-434.424c18.618-18.618 18.618-46.545 0-65.164-9.309-9.309-21.721-12.412-34.133-12.412s-24.824 3.103-34.133 12.412l-465.455 465.455c-15.515 15.515-15.515 46.545 3.103 65.164zM424.867 482.133l465.455 465.455c18.618 15.515 49.648 15.515 68.267 0 15.515-18.618 15.515-49.648 0-68.267l-431.321-431.321 431.321-431.321c18.618-18.618 18.618-46.545 0-65.164-9.309-12.412-21.721-15.515-34.133-15.515s-24.824 3.103-34.133 12.412l-465.455 465.455c-15.515 18.618-15.515 49.648 0 68.267z" horiz-adv-x="971" />
<glyph unicode="&#xe614;" d="M958.836 482.133l-465.455 465.455c-18.618 18.618-46.545 18.618-65.164 0s-18.618-46.545 0-65.164l431.321-431.321-431.321-434.424c-18.618-18.618-18.618-46.545 0-65.164 9.309-9.309 21.721-12.412 34.133-12.412s24.824 3.103 34.133 12.412l465.455 465.455c15.515 15.515 15.515 46.545-3.103 65.164zM546.133 482.133l-465.455 465.455c-18.618 15.515-49.648 15.515-68.267 0-15.515-18.618-15.515-49.648 0-68.267l431.321-431.321-431.321-431.321c-18.618-18.618-18.618-46.545 0-65.164 9.309-12.412 21.721-15.515 34.133-15.515s24.824 3.103 34.133 12.412l465.455 465.455c15.515 18.618 15.515 49.648 0 68.267z" horiz-adv-x="971" />
<glyph unicode="&#xe615;" d="M1014.4-9.6l-336 339.2c124.8 150.4 118.4 374.4-22.4 518.4-73.6 73.6-169.6 112-272 112s-198.4-38.4-272-112c-150.4-150.4-150.4-393.6 0-544 73.6-73.6 169.6-112 272-112 92.8 0 179.2 32 249.6 92.8l336-339.2c6.4-6.4 16-9.6 22.4-9.6 9.6 0 16 3.2 22.4 9.6 12.8 12.8 12.8 32 0 44.8zM156.8 348.8c-124.8 124.8-124.8 329.6 0 454.4 60.8 60.8 140.8 92.8 227.2 92.8s166.4-32 227.2-92.8c124.8-124.8 124.8-329.6 0-454.4-60.8-60.8-140.8-92.8-227.2-92.8s-166.4 32-227.2 92.8zM544 608h-121.6v121.6c0 19.2-12.8 32-32 32s-32-12.8-32-32v-121.6h-118.4c-19.2 0-32-12.8-32-32s12.8-32 32-32h121.6v-121.6c0-19.2 12.8-32 32-32s32 12.8 32 32v121.6h118.4c19.2 0 32 12.8 32 32s-12.8 32-32 32z" />
<glyph unicode="&#xe616;" d="M1012.185 727.631l-224.492 224.492c-15.754 15.754-39.385 15.754-55.138 0l-622.277-630.154c0 0 0-3.938-3.938-3.938 0-3.938-3.938-3.938-3.938-7.877 0 0 0-3.938 0-3.938s0 0 0-3.938l-102.4-315.077c-3.938-15.754 0-27.569 7.877-39.385 11.815-7.877 19.692-11.815 31.508-11.815 3.938 0 7.877 0 11.815 0l322.954 98.462c0 0 0 0 0 0s3.938 0 3.938 3.938c3.938 0 3.938 3.938 7.877 3.938 0 0 3.938 0 3.938 3.938l622.277 622.277c15.754 15.754 15.754 43.323 0 59.077zM370.215 136.862l-51.2 98.462c-3.938 7.877-7.877 15.754-15.754 19.692l-98.462 51.2 433.231 433.231 165.415-165.415-433.231-437.169zM161.477 239.262l94.523-47.262 47.262-94.523-204.8-63.015 63.015 204.8zM862.523 629.169l-165.415 165.415 70.892 70.892 165.415-165.415-70.892-70.892z" />
<glyph unicode="&#xe617;" d="M1322.667 742.4h-290.133l-29.867 179.2c-4.267 21.333-21.333 38.4-42.667 38.4h-554.667c-21.333 0-38.4-17.067-42.667-34.133l-29.867-183.467h-290.133c-25.6 0-42.667-17.067-42.667-42.667v-721.067c0-25.6 17.067-42.667 42.667-42.667h1280c25.6 0 42.667 17.067 42.667 42.667v721.067c0 25.6-17.067 42.667-42.667 42.667zM1280 21.333h-1194.667v635.733h281.6c21.333 0 38.4 17.067 42.667 34.133l29.867 183.467h482.133l29.867-179.2c4.267-21.333 21.333-34.133 42.667-34.133h285.867v-640zM682.667 644.267c-140.8 0-256-115.2-256-256s115.2-256 256-256 256 115.2 256 256-115.2 256-256 256zM682.667 221.867c-93.867 0-170.667 76.8-170.667 170.667s76.8 170.667 170.667 170.667 170.667-76.8 170.667-170.667-76.8-170.667-170.667-170.667z" horiz-adv-x="1365" />
<glyph unicode="&#xe618;" d="M752.246 467.692h-712.862c-23.631 0-39.385-15.754-39.385-39.385v-452.923c0-23.631 15.754-39.385 39.385-39.385h712.862c23.631 0 39.385 15.754 39.385 39.385v452.923c0 19.692-15.754 39.385-39.385 39.385zM712.862 14.769h-634.092v374.154h634.092v-374.154zM1244.554 384.985c-7.877 7.877-23.631 11.815-35.446 7.877l-319.015-78.769c-15.754-3.938-31.508-19.692-31.508-39.385v-153.6c0-19.692 11.815-35.446 31.508-39.385l319.015-74.831c3.938 0 7.877 0 7.877 0 7.877 0 15.754 3.938 23.631 7.877 7.877 7.877 15.754 19.692 15.754 31.508v307.2c3.938 11.815 0 23.631-11.815 31.508zM1181.538 97.477l-240.246 59.077v90.585l240.246 59.077v-208.738zM169.354 550.4c82.708 0 149.662 66.954 149.662 145.723s-66.954 145.723-149.662 145.723c-82.708 0-149.662-66.954-149.662-145.723s66.954-145.723 149.662-145.723zM169.354 763.077c39.385 0 70.892-31.508 70.892-66.954s-31.508-66.954-70.892-66.954-70.892 27.569-70.892 66.954 31.508 66.954 70.892 66.954zM582.892 960c-118.154 0-212.677-90.585-212.677-204.8s94.523-204.8 212.677-204.8 212.677 90.585 212.677 204.8-94.523 204.8-212.677 204.8zM582.892 629.169c-74.831 0-133.908 55.138-133.908 126.031s59.077 126.031 133.908 126.031 133.908-55.138 133.908-126.031-59.077-126.031-133.908-126.031z" horiz-adv-x="1260" />
<glyph unicode="&#xe619;" d="M754.335 171.654l-93.533 93.533c-13.362 13.362-32.797 21.865-52.233 21.865-15.791 0-31.582-4.859-44.944-14.577l-53.447 53.447c46.159 377.775-109.324 625.575-111.753 628.005-4.859 7.288-15.791 7.288-20.65 0-2.429-4.859-69.238-108.109-102.036-284.242-6.074-29.153-9.718-60.735-13.362-95.962l-32.797 32.797c9.718 13.362 14.577 27.938 14.577 44.944 0 19.435-7.288 38.871-21.865 52.233l-93.533 93.533c-13.362 13.362-32.797 21.865-52.233 21.865s-38.871-7.288-52.233-21.865l-3.644-3.644c-29.153-29.153-29.153-75.312 0-104.465l94.747-93.533c13.362-13.362 32.797-21.865 52.233-21.865 15.791 0 31.582 4.859 44.944 14.577l47.374-47.374c-10.932-156.698 9.718-364.413 117.827-598.852 2.429-4.859 6.074-7.288 10.932-7.288s8.503 2.429 10.932 7.288c57.091 126.33 91.103 244.157 106.894 352.266l40.085-38.871c-9.718-13.362-14.577-27.938-14.577-44.944 0-19.435 7.288-38.871 21.865-52.233l93.533-93.533c13.362-13.362 32.797-21.865 52.233-21.865s38.871 7.288 52.233 21.865l3.644 3.644c27.938 27.938 27.938 75.312-1.215 103.25zM167.63 598.017c-13.362 0-25.509 4.859-35.227 14.577l-93.533 93.533c-19.435 19.435-19.435 51.018 0 70.453l3.644 3.644c9.718 9.718 21.865 14.577 35.227 14.577s25.509-4.859 35.227-14.577l93.533-93.533c9.718-9.718 14.577-21.865 14.577-35.227 0-9.718-2.429-19.435-8.503-26.724l-47.374 47.374c-4.859 4.859-12.147 4.859-17.006 0s-4.859-12.147 0-17.006l47.374-47.374c-8.503-6.074-18.221-9.718-27.938-9.718zM387.492 923.559c32.797-60.735 132.403-273.31 99.606-575.772l-32.797 32.797c14.577 15.791 24.294 37.656 24.294 61.95 0 49.803-41.3 91.103-91.103 91.103-23.079 0-44.944-9.718-61.95-24.294l-41.3 41.3c15.791 193.139 78.956 326.757 103.25 372.916zM329.186 472.902l89.888-89.888c-9.718-4.859-19.435-7.288-30.368-7.288-36.441 0-66.809 30.368-66.809 66.809-1.215 10.932 2.429 20.65 7.288 30.368zM343.763 492.337c12.147 10.932 26.724 17.006 43.73 17.006 36.441 0 66.809-30.368 66.809-66.809 0-17.006-6.074-32.797-17.006-43.73l-93.533 93.533zM387.492-21.485c-89.888 205.286-111.753 389.922-104.465 540.546l27.938-27.938c-8.503-14.577-14.577-30.368-14.577-48.588 0-49.803 41.3-91.103 91.103-91.103 18.221 0 34.012 4.859 48.588 14.577l47.374-47.374c-13.362-105.68-42.515-218.648-95.962-340.119zM737.329 84.195l-3.644-3.644c-9.718-9.718-21.865-14.577-35.227-14.577s-25.509 4.859-35.227 14.577l-93.533 93.533c-9.718 9.718-14.577 21.865-14.577 35.227 0 9.718 2.429 19.435 8.503 26.724l47.374-47.374c2.429-2.429 6.074-3.644 8.503-3.644s6.074 1.215 8.503 3.644c4.859 4.859 4.859 12.147 0 17.006l-47.374 47.374c8.503 4.859 17.006 8.503 27.938 8.503 13.362 0 25.509-4.859 35.227-14.577l93.533-93.533c19.435-18.221 19.435-49.803 0-69.238z" horiz-adv-x="776" />
<glyph unicode="&#xe61a;" d="M334.045 670.899c-47.374 177.348-140.906 280.598-144.55 285.457-4.859 4.859-13.362 4.859-18.221 0-3.644-4.859-97.177-108.109-144.55-285.457-43.73-163.986-54.662-422.719 143.336-728.826 2.429-3.644 6.074-6.074 9.718-6.074s8.503 2.429 9.718 6.074c199.212 306.107 188.28 564.84 144.55 728.826zM319.469 628.384h-36.441v87.459h6.074c2.429 0 3.644 1.215 6.074 1.215 6.074-17.006 12.147-35.227 17.006-54.662 1.215-9.718 4.859-21.865 7.288-34.012zM258.733 715.843v-87.459h-156.698v87.459h156.698zM179.777 928.418c19.435-24.294 68.024-91.103 105.68-188.28h-210.145c37.656 98.391 85.030 163.986 104.465 188.28zM66.809 718.273c1.215-1.215 3.644-2.429 6.074-2.429h6.074v-87.459h-36.441c2.429 12.147 4.859 23.079 8.503 35.227 3.644 18.221 9.718 36.441 15.791 54.662zM36.441 605.305c1.215 0 1.215 0 2.429 0h281.813c1.215 0 1.215 0 2.429 0 7.288-43.73 12.147-91.103 12.147-144.55h-310.966c0 52.233 4.859 100.821 12.147 144.55zM315.824 291.91h-270.88c-10.932 51.018-17.006 98.391-19.435 144.55h309.751c-2.429-44.944-8.503-93.533-19.435-144.55zM283.027 180.157v0 87.459h27.938c-7.288-27.938-17.006-57.091-27.938-87.459zM77.741 180.157c-10.932 30.368-19.435 59.521-26.724 87.459h27.938l-1.215-87.459zM102.036 267.616h155.483v-87.459h-155.483v87.459zM179.777-28.773c-40.085 64.38-70.453 126.33-93.533 184.636h188.28c-23.079-58.306-54.662-120.256-94.747-184.636z" horiz-adv-x="361" />
<glyph unicode="&#xe61b;" d="M951.408 802.236l-234.206 105.393c-8.783 2.928-14.639 5.855-23.42 5.855s-46.841 0-58.551 0c-8.783 0-17.565-2.928-23.421-5.855l-237.134-105.393c-2.928 0-5.855-2.928-8.783-5.855 0 0-2.928 2.928-2.928 2.928l-234.206 105.393c-5.855 5.855-14.639 5.855-23.421 5.855-11.71 0-23.421-2.928-32.203-8.783-17.565-11.71-26.348-29.276-26.348-49.769v-726.038c0-23.42 14.639-46.841 38.059-55.624l234.206-84.9c5.855-2.928 14.639-2.928 20.494-2.928 11.71 0 35.131 0 35.131 0 14.639 0 38.059 5.855 43.914 8.783l237.134 84.9c2.928 0 5.855 2.928 8.783 2.928 2.928-2.928 5.855-2.928 8.783-5.855l234.206-84.9c5.855-2.928 14.639-2.928 20.494-2.928 11.71 0 23.421 2.928 32.203 11.71 14.639 11.71 26.348 29.276 26.348 46.841v705.544c-2.928 20.494-14.639 43.914-35.131 52.696zM339.546 41.067l-234.206 84.9v726.038l234.206-105.393v-705.544zM635.23 128.895l-234.206-84.9v702.618l234.206 105.393v-723.111zM925.061 43.995l-231.278 84.9c0 0 0 0 0 0v726.038l231.278-105.393v-705.544z" horiz-adv-x="1030" />
<glyph unicode="&#xe61c;" d="M384 960c-211.2 0-384-166.4-384-371.2 0-67.2 19.2-134.4 54.4-192l300.8-448c6.4-9.6 16-12.8 25.6-12.8v0c9.6 0 19.2 6.4 25.6 12.8l300.8 448c35.2 57.6 54.4 124.8 54.4 192 6.4 204.8-166.4 371.2-377.6 371.2zM659.2 432l-275.2-406.4-275.2 406.4c-28.8 48-44.8 102.4-44.8 156.8 0 169.6 144 307.2 320 307.2s320-137.6 320-307.2c0-54.4-16-108.8-44.8-156.8zM384 768c-99.2 0-182.4-80-182.4-176s83.2-176 182.4-176 182.4 80 182.4 176-83.2 176-182.4 176zM384 480c-64 0-118.4 51.2-118.4 112s54.4 112 118.4 112 118.4-51.2 118.4-112-54.4-112-118.4-112z" horiz-adv-x="768" />
<glyph unicode="&#xe61d;" d="M510.582 960c-282.238 0-512-229.762-512-512s229.762-512 512-512c282.238 0 512 229.762 512 512 1.418 282.238-228.343 512-512 512zM733.252 630.958c-53.895-53.895-178.704-181.54-202.814-204.233-7.091-7.091-18.438-18.438-24.111-18.438s-15.601 9.928-24.111 18.438c-22.693 22.693-146.083 150.338-197.141 204.233h448.177zM246.781 589.828l143.247-141.828-143.247-141.828v283.657zM287.911 265.042l140.41 141.828c7.091-7.091 15.601-15.601 25.529-24.111 19.856-18.438 36.875-28.366 55.313-28.366 17.019 0 34.039 8.51 56.731 28.366l25.529 24.111 143.247-143.247h-446.759zM775.801 304.753l-144.665 143.247 144.665 143.247v-286.493z" />
<glyph unicode="&#xe61e;" d="M1097.143 568.686l-394.971 32.914-153.6 358.4-153.6-358.4-394.971-32.914 299.886-256-91.429-376.686 340.114 201.143 340.114-201.143-91.429 380.343 299.886 252.343zM830.171 12.8l-281.6 168.229v687.543l120.686-281.6 7.314-21.943h21.943l307.2-25.6-234.057-197.486-18.286-14.629 3.657-21.943 73.143-292.571z" horiz-adv-x="1097" />
<glyph unicode="&#xe61f;" d="M1016.959 715.638c-18.673 18.673-46.68 18.673-65.355 0l-435.689-435.689-432.579 435.689c-18.671 15.56-49.793 15.56-68.465 0-15.561-18.673-15.561-49.792 0-68.465l466.812-466.812c9.336-9.336 21.784-12.447 34.232-12.447s24.896 3.112 34.232 12.447l466.812 466.812c15.561 18.671 15.561 49.793 0 68.465z" horiz-adv-x="1029" />
<glyph unicode="&#xe620;" d="M1016.959 180.362c-18.673-18.673-46.68-18.673-65.355 0l-435.689 435.689-432.579-435.689c-18.671-15.56-49.793-15.56-68.465 0-15.561 18.673-15.561 49.792 0 68.465l466.812 466.812c9.336 9.336 21.784 12.447 34.232 12.447s24.896-3.112 34.232-12.447l466.812-466.812c15.561-18.671 15.561-49.793 0-68.465z" horiz-adv-x="1029" />
<glyph unicode="&#xe621;" d="M1007.067 202.427c-9.603 6.861-21.95 4.116-28.811-5.487-19.206-28.811-53.505-46.646-90.547-46.646-58.994 0-107.008 45.273-107.008 101.521 0 10.977-9.603 20.579-20.579 20.579s-20.579-9.603-20.579-20.579c0-56.249-48.017-101.521-107.008-101.521-53.505 0-97.406 37.044-105.635 86.43v271.638c65.851-30.182 222.249-96.034 362.185-100.149 9.603-97.407-42.528-167.373-43.9-168.746-6.861-9.603-5.487-21.95 4.116-28.811 4.116-2.743 8.231-4.116 12.349-4.116 6.861 0 12.349 2.744 16.463 8.232 2.744 4.116 69.966 93.289 49.388 218.132-1.371 9.603-9.603 17.835-20.579 17.835-1.371 0-2.744 0-4.116 0-172.861 0-386.878 109.753-388.25 111.125-5.487 2.744-13.717 2.744-19.206 0-2.744-1.371-215.391-111.125-388.251-111.125-1.371 0-2.743 0-4.116 0-10.977 0-19.206-6.861-20.579-17.835-21.95-126.216 45.273-215.391 48.018-218.132 6.861-9.603 19.206-10.977 28.811-4.116s10.977 19.206 4.116 28.811c0 1.371-53.505 71.34-43.9 168.746 142.679 4.116 301.821 71.34 364.927 101.519v-251.059c-1.371-2.744-1.371-4.116-1.371-6.861 0-56.249-48.018-101.521-107.008-101.521s-107.008 45.273-107.008 101.521c0 10.977-9.603 20.579-20.579 20.579s-20.579-9.603-20.579-20.579c0-56.249-48.018-101.521-107.008-101.521-37.043 0-69.966 17.835-90.547 46.646-6.861 9.603-19.206 12.349-28.811 5.487-8.231-6.861-10.977-19.206-4.116-28.811 27.437-39.785 74.083-64.48 123.473-64.48 54.876 0 101.521 28.811 127.587 69.966 26.066-42.528 74.083-69.966 127.587-69.966s101.521 28.811 127.587 69.966c26.066-42.528 74.082-69.966 127.587-69.966 54.876 0 101.521 28.811 127.587 69.966 26.066-42.528 74.082-69.966 127.587-69.966 50.761 0 96.034 24.694 123.473 64.48 8.231 9.603 6.861 21.95-2.744 28.811zM27.525 548.149c5.487-20.579 24.694-35.669 46.646-35.669 0 0 0 0 0 0 4.116 0 8.231 0 12.349 1.371l215.391 57.62c8.232 2.743 13.718 8.231 15.090 16.463 2.744 19.206 6.861 49.388 6.861 71.34l178.349 48.018 178.349-48.018c0-21.95 4.116-52.131 6.861-71.34 1.371-8.231 6.861-15.090 15.090-16.463l215.391-57.62c4.116-1.371 8.231-1.371 12.349-1.371 21.95 0 41.157 15.090 46.646 35.669l27.437 100.149c6.861 26.066-8.231 52.131-34.298 58.994l-215.391 57.62c-8.232 2.743-16.463 0-21.95-6.861-12.349-15.090-30.182-39.784-41.157-57.62l-109.753 28.811 64.48 17.835c10.977 2.744 17.835 13.718 15.090 24.694s-13.717 17.835-24.694 15.090l-134.449-35.669-134.449 35.669c-10.977 2.743-21.951-4.116-24.694-15.090s4.116-21.95 15.090-24.694l64.48-17.835-109.753-28.811c-10.977 17.835-28.811 42.528-41.157 57.62-5.487 6.861-13.718 9.603-21.95 6.861l-215.391-57.62c-26.066-6.861-41.157-32.927-34.298-58.994l27.437-100.149zM757.382 721.009l201.67-53.505c4.116-1.371 5.487-5.487 5.487-8.231l-27.437-100.149c-1.371-4.116-5.487-5.487-8.232-5.487l-201.67 54.876c-1.371 13.718-2.744 28.811-4.116 41.157l87.802-23.322c1.371 0 4.116-1.371 5.487-1.371 9.603 0 17.835 5.487 19.206 15.090 2.744 10.977-4.116 21.95-15.090 24.694l-86.43 23.322c5.487 9.603 13.718 21.95 23.322 32.927zM45.358 667.505l201.671 53.505c8.231-10.977 17.835-23.322 23.322-32.927l-87.802-23.322c-10.977-2.743-17.835-13.717-15.090-24.694 2.744-9.603 10.977-15.090 19.206-15.090 1.371 0 4.116 0 5.487 1.371l86.43 23.322c-1.371-12.349-2.744-26.066-4.116-41.157l-198.926-54.876c-2.744-1.371-6.861 1.371-8.231 5.487l-27.437 100.149c0 2.743 2.743 6.861 5.487 8.231z" horiz-adv-x="1016" />
<glyph unicode="&#xe622;" d="M512.794 960c-284.18 0-512.794-228.614-512.794-511.206s228.614-512.794 512.794-512.794 512.794 228.614 512.794 512.794c-1.588 282.592-230.202 511.206-512.794 511.206zM603.287 417.042c-4.763-6.35-12.701-11.113-20.639-11.113-4.763 0-9.526 1.588-12.701 3.175l-80.967 52.391c-6.35 4.763-11.113 12.701-11.113 20.639v77.792c0 12.701 11.113 23.814 23.814 23.814s23.814-11.113 23.814-23.814v-65.091l69.854-44.453c12.701-7.938 15.876-22.226 7.938-33.34zM509.619 755.2c36.515 0 66.679-30.164 66.679-66.679s-30.164-66.679-66.679-66.679c-36.515 0-66.679 30.164-66.679 66.679s30.164 66.679 66.679 66.679zM341.333 442.443v119.070c0 9.526 4.763 19.051 14.288 23.814l41.278 20.639c7.938 4.763 17.464 3.175 25.402-1.588s12.701-12.701 12.701-22.226v-141.296c0-14.288-11.113-26.989-26.989-26.989h-41.278c-14.288 1.588-25.402 14.288-25.402 28.577zM665.203 172.552c-12.701-4.763-25.402 1.588-30.164 14.288l-38.102 100.019-87.318 58.741-57.153-158.76c-3.175-9.526-12.701-15.876-22.226-15.876-3.175 0-4.763 0-7.938 1.588-12.701 4.763-19.051 17.464-14.288 30.164l68.267 187.336c3.175 6.35 7.938 12.701 14.288 14.288s14.288 1.588 20.639-3.175l119.070-80.967c4.763-3.175 7.938-6.35 9.526-11.113l39.69-106.369c4.763-11.113-1.588-25.402-14.288-30.164z" />
<glyph unicode="&#xe623;" d="M512.794 725.036c-38.102-30.164-180.986-153.997-180.986-309.581 0-142.884 119.070-171.46 165.11-177.811v71.442l-96.843 96.843c-6.35 6.35-6.35 15.876 0 22.226s15.876 6.35 22.226 0l74.617-74.617v106.369l-55.566 55.566c-6.35 6.35-6.35 15.876 0 22.226s15.876 6.35 22.226 0l33.34-33.34v106.369c0 9.526 6.35 15.876 15.876 15.876s15.876-6.35 15.876-15.876v-106.369l33.34 33.34c6.35 6.35 15.876 6.35 22.226 0s6.35-15.876 0-22.226l-55.566-55.566v-106.369l74.617 74.617c6.35 6.35 15.876 6.35 22.226 0s6.35-15.876 0-22.226l-96.843-96.843v-71.442c44.453 6.35 163.522 34.927 163.522 177.811 0 155.584-142.884 279.417-179.398 309.581zM512.794 960c-284.18 0-512.794-228.614-512.794-512.794 0-282.592 228.614-511.206 512.794-511.206 282.592 0 512.794 228.614 512.794 511.206-1.588 284.18-230.202 512.794-512.794 512.794zM528.67 205.891v-55.566c0-9.526-6.35-15.876-15.876-15.876s-15.876 6.35-15.876 15.876v55.566c-49.216 6.35-196.862 39.69-196.862 209.563 0 195.274 193.687 336.571 203.212 342.921 4.763 3.175 12.7 3.175 19.051 0 7.938-6.35 203.212-147.647 203.212-342.921-1.588-169.873-149.234-203.212-196.862-209.563z" />
</font>
</defs>
</svg>
